conanlcg
超級版主

[2019] [歐美] [其他] [WEB-1080P] 神奇女俠:血脈 Wonder.Woman.Bloodlines.2019.1080p.WEB-DL.DD5.1.H264-FGT 3.01GB

-->

帖子完整標題:神奇女俠:血脈 Wonder.Woman.Bloodlines.2019.1080p.WEB-DL.DD5.1.H264-FGT 3.01GB




◎譯  名 神奇女俠:血脈
◎片  名 Wonder Woman: Bloodlines
◎年  代 2019
◎產  地 美國
◎類  別 動畫 / 奇幻
◎語  言 英語
◎上映日期 2019-10-05(美國)
◎IMDb評分 4.6/10 from 7 users
◎IMDb鏈接 http://www.imdb.com/title/tt8752498
◎豆瓣評分 0/10 from 0 users
◎豆瓣鏈接 https://movie.douban.com/subject/30286098/
◎片  長 83分鐘
◎導  演 賈斯汀·科普蘭 Justin Copeland / 劉山姆 Sam Liu
◎編  劇 威廉·馬斯頓 William M. Marston / 麥格里德·斯科特 Mairghread Scott
◎主  演 羅莎里奧·道森 Rosario Dawson
      瑪莉·艾格洛蒲露絲 Marie Avgeropoulos
      艾德麗安·C·摩爾 Adrienne C. Moore
      杰弗里·多諾萬 Jeffrey Donovan
      克里·薩莫 Cree Summer
      邁克爾·多恩 Michael Dorn
      康斯坦斯·齊默 Constance Zimmer
      莫贊·瑪諾 Mozhan Marnò
      妮婭·瓦達拉斯 Nia Vardalos
      柯特奈·泰勒 Courtenay Taylor
      雷·蔡斯 Ray Chase
      Kimberly Brooks


◎標  簽 DC | 動畫 | 神奇女俠 | 2019 | 美國 | DC動漫 | 漫改 | DCAMU

◎簡  介

  該部電影是2009年以來的第二部“神奇女俠”動畫電影,電影主要講述神奇女俠神奇女俠要從致命犯罪的組織幫助一名深陷麻煩的女孩,而這個組織的目標是入侵神奇女俠的家鄉天堂島。
  羅莎里奧·道森將繼續為神奇女俠配音,本片將有銀天鵝、豹女、毒藥博士和巨化女等神奇女俠經典反派登場。
Video
ID : 1
Format : AVC
Format/Info : Advanced Video Codec
Format profile : [email protected]
Format settings : CABAC / 4 Ref Frames
Format settings, CABAC : Yes
Format settings, Reference frames : 4 frames
Codec ID : V_MPEG4/ISO/AVC
Duration : 1 h 22 min
Bit rate : 4 813 kb/s
Width : 1 920 pixels
Height : 1 080 pixels
Display aspect ratio : 16:9
Frame rate mode : Constant
Frame rate : 23.976 FPS
Color space : YUV
Chroma subsampling : 4:2:0
Bit depth : 8 bits
Scan type : Progressive
Bits/(Pixel*Frame) : 0.097
Stream size : 2.79 GiB (93%)
Title : Wonder.Woman.Bloodlines.2019.1080p.WEB-DL.DD5.1.H264-FGT
Language : English
Default : Yes
Forced : No
Color range : Limited
Color primaries : BT.709
Transfer characteristics : BT.709
Matrix coefficients : BT.709

Audio
ID : 2
Format : AC-3
Format/Info : Audio Coding 3
Commercial name : Dolby Digital
Codec ID : A_AC3
Duration : 1 h 22 min
Bit rate mode : Constant
Bit rate : 384 kb/s
Channel(s) : 6 channels
Channel layout : L R C LFE Ls Rs
Sampling rate : 48.0 kHz
Frame rate : 31.250 FPS (1536 SPF)
Bit depth : 16 bits
Compression mode : Lossy
Stream size : 228 MiB (7%)
Title : Wonder.Woman.Bloodlines.2019.1080p.WEB-DL.DD5.1.H264-FGT
Language : English
Service kind : Complete Main
Default : Yes
Forced : No

Text
ID : 3
Format : UTF-8
Codec ID : S_TEXT/UTF8
Codec ID/Info : UTF-8 Plain Text
Duration : 1 h 19 min
Bit rate : 47 b/s
Count of elements : 964
Stream size : 27.6 KiB (0%)
Language : English
Default : Yes
Forced : No

Menu
00:00:00.000 : en:1
00:10:03.000 : en:2
00:19:53.000 : en:3
00:28:25.000 : en:4
00:38:44.000 : en:5
00:47:37.000 : en:6
00:54:35.000 : en:7
01:03:47.000 : en:8
01:12:13.000 : en:9
01:17:54.000 : en:10





1 個附件 售價 大小 下載 時間

Wonder.Woman.Bloodlines.2019.1080p.WEB-DL.DD5.1.H264-FGT.torrent 0 金幣 30.67K 1974 次 10天前

#1樓
發帖時間:2019-10-05 14:38:01   |   回復數:2
liyouchai
隱世仙人♂
謝謝樓主分享資源
10天前 #2樓
911degrees
隱世仙人♂
非常感謝,謝謝分享
1天前 #3樓
游客組