conanlcg
超級版主

[更 早] [歐美] [其他] [BD-1080P] 光影流情 The.Kid.Stays.in.the.Picture.2002.1080p.BluRay.X264-7SinS 6.55GB

-->

帖子完整標題:光影流情 The.Kid.Stays.in.the.Picture.2002.1080p.BluRay.X264-7SinS 6.55GB




◎譯  名 光影流情
◎片  名 The Kid Stays In the Picture
◎年  代 2002
◎產  地 美國
◎類  別 紀錄片 / 傳記
◎語  言 英語
◎上映日期 2002-07-26
◎IMDb評分 7.4/10 from 6616 users
◎IMDb鏈接 http://www.imdb.com/title/tt0303353
◎豆瓣評分 7.7/10 from 903 users
◎豆瓣鏈接 https://movie.douban.com/subject/1304865/
◎片  長 93 分鐘
◎導  演 Brett Morgen / Nanette Burstein
◎編  劇 Brett Morgan / 羅伯特 埃文斯 (Robert Evans)

◎標  簽 紀錄片 | 美國 | 傳記 | 2002 | 光影流情 | 人生即傳奇 | 美國電影 | documentary

◎簡  介

  劇情:傳奇監制羅伯特·埃文斯一生比電影更峰回路轉。1956年,金像影后Norma Shearer邀他合演新作,展開好萊塢生涯。短暫而璀璨的明星風光后,羅伯特·埃文斯欲挑戰制片工作,當時的他策劃了多部經典電影如《教父》、《殉情記》和《唐人街》等。80年代,羅伯特·埃文斯與老婆艾利離婚,接著有吸毒丑聞,更牽涉入《棉花俱樂部》兇殺案,自此絕跡影圈。90年代他再次出山,重回監制本行之余,撰寫的自傳亦賣得成行成市,更被搬上銀幕拍成本片,證明羅伯特·埃文斯注定要留在電影圈里。
  點評:你可以說這是一部紀錄片,但也可以說它是一部傳奇電影,因為片中的主角、好萊塢著名制片人羅伯特·埃文斯的故事完全值得用傳奇二字去注釋。本片改編自羅伯特·埃文斯的暢銷自傳小說,布雷特·摩根以平實的手法在銀幕上再現了羅伯特·埃文斯的傳奇故事,羅伯特·埃文斯自己的旁白讓影片顯得既真實,又不失趣味。
Video
ID : 1
Format : AVC
Format/Info : Advanced Video Codec
Format profile : [email protected]
Format settings, CABAC : Yes
Format settings, ReFrames : 4 frames
Codec ID : V_MPEG4/ISO/AVC
Duration : 1 h 34 min
Bit rate : 8 465 kb/s
Width : 1 920 pixels
Height : 1 040 pixels
Display aspect ratio : 1.85:1
Frame rate mode : Constant
Frame rate : 23.976 (24000/1001) FPS
Original frame rate : 23.976 (23976/1000) FPS
Color space : YUV
Chroma subsampling : 4:2:0
Bit depth : 8 bits
Scan type : Progressive
Bits/(Pixel*Frame) : 0.177
Stream size : 5.42 GiB (83%)
Writing library : x264 core 133 r2334 a3ac64b
Encoding settings : cabac=1 / ref=4 / deblock=1:0:0 / analyse=0x3:0x133 / me=umh / subme=7 / psy=1 / psy_rd=1.00:0.00 / mixed_ref=1 / me_range=16 / chroma_me=1 / trellis=1 / 8x8dct=1 / cqm=0 / deadzone=21,11 / fast_pskip=0 / chroma_qp_offset=-2 / threads=12 / lookahead_threads=2 / sliced_threads=0 / nr=0 / decimate=1 / interlaced=0 / bluray_compat=0 / constrained_intra=0 / bframes=3 / b_pyramid=2 / b_adapt=2 / b_bias=0 / direct=3 / weightb=1 / open_gop=0 / weightp=2 / keyint=250 / keyint_min=23 / scenecut=40 / intra_refresh=0 / rc_lookahead=50 / rc=2pass / mbtree=1 / bitrate=8465 / ratetol=1.0 / qcomp=0.60 / qpmin=0 / qpmax=69 / qpstep=4 / cplxblur=20.0 / qblur=0.5 / ip_ratio=1.40 / aq=1:1.00
Language : English
Default : Yes
Forced : No

Audio
ID : 2
Format : DTS
Format/Info : Digital Theater Systems
Mode : 16
Format settings, Endianness : Big
Codec ID : A_DTS
Duration : 1 h 34 min
Bit rate mode : Constant
Bit rate : 1 509 kb/s
Channel(s) : 2 channels
Channel positions : Front: L R
Sampling rate : 48.0 kHz
Frame rate : 93.750 FPS (512 spf)
Bit depth : 24 bits
Compression mode : Lossy
Stream size : 1 020 MiB (15%)
Language : English
Default : Yes
Forced : No

Text
ID : 3
Format : UTF-8
Codec ID : S_TEXT/UTF8
Codec ID/Info : UTF-8 Plain Text
Language : English
Default : Yes
Forced : No

Menu
00:00:00.000 : en:00:00:00.000
00:06:09.661 : en:00:06:09.661
00:13:08.371 : en:00:13:08.371
00:17:41.477 : en:00:17:41.477
00:24:45.943 : en:00:24:45.943
00:30:16.356 : en:00:30:16.356
00:36:16.466 : en:00:36:16.466
00:42:35.803 : en:00:42:35.803
00:49:25.838 : en:00:49:25.838
00:55:37.751 : en:00:55:37.751
00:59:50.545 : en:00:59:50.545
01:05:48.444 : en:01:05:48.444
01:09:47.767 : en:01:09:47.767
01:14:08.611 : en:01:14:08.611
01:23:19.661 : en:01:23:19.661
01:27:22.904 : en:01:27:22.904
01:33:56.714 : en:01:33:56.714





1 個附件 售價 大小 下載 時間

The.Kid.Stays.in.the.Picture.2002.1080p.BluRay.X264-7SinS.torrent 0 金幣 66.02K 224 次 10天前

#1樓
發帖時間:2019-10-05 13:36:10   |   回復數:1
911degrees
隱世仙人♂
非常感謝,謝謝分享
1天前 #2樓
游客組