conanlcg
超級版主

[2019] [歐美] [喜劇] [BD-720P] 優步危機/斯圖伯 Stuber.2019.720p.BluRay.x264-DRONES 4.38GB

-->

帖子完整標題:優步危機/斯圖伯 Stuber.2019.720p.BluRay.x264-DRONES 4.38GB




◎譯  名 優步危機 / 斯圖伯 / 狂玩嘢時速(港) / 玩命優步(臺)
◎片  名 Stuber
◎年  代 2019
◎產  地 美國
◎類  別 喜劇 / 動作
◎語  言 英語
◎上映日期 2019-07-12(美國)
◎IMDb評分 6.2/10 from 9167 users
◎IMDb鏈接 http://www.imdb.com/title/tt7734218
◎豆瓣評分 6.5/10 from 246 users
◎豆瓣鏈接 https://movie.douban.com/subject/27603782/
◎片  長 105分鐘
◎導  演 邁克爾·道斯 Michael Dowse
◎編  劇 特里珀·克蘭西 Tripper Clancy
◎主  演 戴夫·巴蒂斯塔 Dave Bautista
      庫梅爾·南賈尼 Kumail Nanjiani
      伊科·烏艾斯 Iko Uwais
      貝蒂·吉爾平 Betty Gilpin
      米拉·索維諾 Mira Sorvino
      娜塔麗·莫瑞絲 Natalie Morales
      約書亞·米克爾 Joshua Mikel
      阿明·約瑟夫 Amin Joseph
      斯科特·勞倫斯 Scott Lawrence
      克里斯汀·霍恩 Christine Horn
      漢斯·馬雷羅 Hans Marrero
      雷內?莫蘭 Rene Moran


◎標  簽 喜劇 | 動作 | 美國 | 2019 | 犯罪 | 搞笑 | 二十世紀福克斯 | 家庭

◎簡  介

  南賈尼飾演一名性格溫和的Uber司機,某天載的乘客是一位頭發斑白的警察,他正在追捕一名殘忍的殺手。司機發現自己面臨艱巨考驗,他必須要保持冷靜,保證服務質量以獲得五星好評。
Video
ID : 1
Format : AVC
Format/Info : Advanced Video Codec
Format profile : [email protected]
Format settings : CABAC / 5 Ref Frames
Format settings, CABAC : Yes
Format settings, Reference frames : 5 frames
Codec ID : V_MPEG4/ISO/AVC
Duration : 1 h 33 min
Bit rate : 5 190 kb/s
Width : 1 280 pixels
Height : 536 pixels
Display aspect ratio : 2.40:1
Frame rate mode : Constant
Frame rate : 23.976 (24000/1001) FPS
Color space : YUV
Chroma subsampling : 4:2:0
Bit depth : 8 bits
Scan type : Progressive
Bits/(Pixel*Frame) : 0.316
Stream size : 3.39 GiB (77%)
Writing library : x264 core 158 r2984 3759fcb
Encoding settings : cabac=1 / ref=5 / deblock=1:-3:-3 / analyse=0x3:0x113 / me=umh / subme=8 / psy=1 / psy_rd=1.00:0.00 / mixed_ref=1 / me_range=16 / chroma_me=1 / trellis=1 / 8x8dct=1 / cqm=0 / deadzone=21,11 / fast_pskip=1 / chroma_qp_offset=-2 / threads=17 / lookahead_threads=2 / sliced_threads=0 / nr=0 / decimate=1 / interlaced=0 / bluray_compat=0 / constrained_intra=0 / bframes=3 / b_pyramid=2 / b_adapt=1 / b_bias=0 / direct=3 / weightb=1 / open_gop=0 / weightp=2 / keyint=250 / keyint_min=23 / scenecut=40 / intra_refresh=0 / rc_lookahead=50 / rc=2pass / mbtree=1 / bitrate=5190 / ratetol=1.0 / qcomp=0.60 / qpmin=0 / qpmax=69 / qpstep=4 / cplxblur=20.0 / qblur=0.5 / ip_ratio=1.40 / aq=1:1.00
Language : English
Default : Yes
Forced : No

Audio
ID : 2
Format : DTS
Format/Info : Digital Theater Systems
Codec ID : A_DTS
Duration : 1 h 33 min
Bit rate mode : Constant
Bit rate : 1 509 kb/s
Channel(s) : 6 channels
Channel layout : C L R Ls Rs LFE
Sampling rate : 48.0 kHz
Frame rate : 93.750 FPS (512 SPF)
Bit depth : 24 bits
Compression mode : Lossy
Stream size : 1 008 MiB (23%)
Language : English
Default : Yes
Forced : No

Menu
00:00:00.000 : en:00:00:00.000
00:05:52.435 : en:00:05:52.435
00:09:57.222 : en:00:09:57.222
00:14:14.854 : en:00:14:14.854
00:17:30.675 : en:00:17:30.675
00:19:46.310 : en:00:19:46.310
00:22:40.276 : en:00:22:40.276
00:27:33.402 : en:00:27:33.402
00:31:30.889 : en:00:31:30.889
00:33:19.247 : en:00:33:19.247
00:35:39.888 : en:00:35:39.888
00:40:13.036 : en:00:40:13.036
00:45:05.202 : en:00:45:05.202
00:49:10.114 : en:00:49:10.114
00:52:36.987 : en:00:52:36.987
00:56:46.111 : en:00:56:46.111
01:01:54.252 : en:01:01:54.252
01:05:43.648 : en:01:05:43.648
01:08:37.196 : en:01:08:37.196
01:13:31.157 : en:01:13:31.157
01:16:44.517 : en:01:16:44.517
01:19:07.534 : en:01:19:07.534
01:23:54.780 : en:01:23:54.780
01:27:49.598 : en:01:27:49.598





1 個附件 售價 大小 下載 時間

Stuber.2019.720p.BluRay.x264-DRONES.torrent 0 金幣 44.66K 819 次 7天前

#1樓
發帖時間:2019-10-05 13:28:05   |   回復數:0
游客組