conanlcg
超級版主

[2017] [其他] [驚悚] [WEB-1080P] 追蹤天涯 Woman.on.the.Run.2017.1080p.AMZN.WEBRip.DDP5.1.x264-NTb 4.15GB

-->

帖子完整標題:追蹤天涯 Woman.on.the.Run.2017.1080p.AMZN.WEBRip.DDP5.1.x264-NTb 4.15GB




◎譯  名 追蹤天涯
◎片  名 Woman on the Run
◎年  代 2017
◎產  地 加拿大 Canada
◎類  別 驚悚
◎語  言 英語
◎上映日期 2017-04-16(美國)
◎IMDb評分 5.5/10 from 392 users
◎IMDb鏈接 http://www.imdb.com/title/tt6237512
◎豆瓣評分 0/10 from 0 users
◎豆瓣鏈接 https://movie.douban.com/subject/27073327/
◎片  長 88分鐘
◎導  演 Jason Bourque
◎編  劇 Paul A. Birkett
◎主  演 莎拉·巴特勒 Sarah Butler
      Josh Byer
      Karen Holness
      Matthew MacCaull
      Lindsay Maxwell
      Phillip Mitchell
      Aliyah O'Brien
      Nevaeh Grace Olsen
      Adrian Petriw
      Bailey Skodje
      Jim Thorburn
      Jerry Wasserman


◎標  簽 犯罪 | 2017加拿大 | 加拿大 | 2017 | 未看 | 劇情 | sy,?

◎簡  介

  After surviving an attempt on her life, a reclusive mystery author discovers that her nanny has stolen her identity, forcing her to go to extreme lengths to get her children back.
Video
ID : 1
Format : AVC
Format/Info : Advanced Video Codec
Format profile : [email protected]
Format settings : CABAC / 4 Ref Frames
Format settings, CABAC : Yes
Format settings, Reference frames : 4 frames
Codec ID : V_MPEG4/ISO/AVC
Duration : 1 h 26 min
Bit rate mode : Variable
Bit rate : 6 259 kb/s
Maximum bit rate : 15.0 Mb/s
Width : 1 920 pixels
Height : 1 080 pixels
Display aspect ratio : 16:9
Frame rate mode : Constant
Frame rate : 23.976 (24000/1001) FPS
Color space : YUV
Chroma subsampling : 4:2:0
Bit depth : 8 bits
Scan type : Progressive
Bits/(Pixel*Frame) : 0.126
Stream size : 3.76 GiB (91%)
Default : Yes
Forced : No
Color range : Limited
Color primaries : BT.709
Transfer characteristics : BT.709
Matrix coefficients : BT.709

Audio
ID : 2
Format : E-AC-3
Format/Info : Enhanced AC-3
Commercial name : Dolby Digital Plus
Codec ID : A_EAC3
Duration : 1 h 26 min
Bit rate mode : Constant
Bit rate : 640 kb/s
Channel(s) : 6 channels
Channel layout : L R C LFE Ls Rs
Sampling rate : 48.0 kHz
Frame rate : 31.250 FPS (1536 SPF)
Compression mode : Lossy
Stream size : 394 MiB (9%)
Language : English
Service kind : Complete Main
Default : Yes
Forced : No

Text
ID : 3
Format : UTF-8
Codec ID : S_TEXT/UTF8
Codec ID/Info : UTF-8 Plain Text
Duration : 1 h 23 min
Bit rate : 57 b/s
Count of elements : 1522
Stream size : 35.5 KiB (0%)
Language : English
Default : No
Forced : No





1 個附件 售價 大小 下載 時間

Woman.on.the.Run.2017.1080p.AMZN.WEBRip.DDP5.1.x264-NTb.torrent 0 金幣 83.55K 196 次 9天前

#1樓
發帖時間:2019-10-05 12:47:19   |   回復數:1
911degrees
隱世仙人♂
非常感謝,謝謝分享
3小時前 #2樓
游客組