conanlcg
超級版主

[2019] [歐美] [恐怖] [HDTV/HDrip] 小丑回魂2 It.Chapter.Two.2019.1080p.KORSUB.HDRip.x264.AAC2.0-STUTTERSHIT 5.50GB

-->

帖子完整標題:小丑回魂2 It.Chapter.Two.2019.1080p.KORSUB.HDRip.x264.AAC2.0-STUTTERSHIT 5.50GB




◎譯  名 小丑回魂2 / It 2 / 它:第二章(臺)
◎片  名 It: Chapter Two
◎年  代 2019
◎產  地 美國
◎類  別 恐怖
◎語  言 英語
◎上映日期 2019-09-06(美國)
◎IMDb評分 7.0/10 from 82324 users
◎IMDb鏈接 http://www.imdb.com/title/tt7349950
◎豆瓣評分 6.6/10 from 5037 users
◎豆瓣鏈接 https://movie.douban.com/subject/27133569/
◎片  長 169分鐘
◎導  演 安德斯·穆斯切蒂 Andrés Muschietti
◎編  劇 加里·多伯曼 Gary Dauberman / 斯蒂芬·金 Stephen King
◎主  演 詹姆斯·麥卡沃伊 James McAvoy
      杰西卡·查斯坦 Jessica Chastain
      比爾·斯卡斯加德 Bill Skarsg?rd
      比爾·哈德爾 Bill Hader
      索菲婭·莉莉絲 Sophia Lillis
      杰克·迪倫·格雷澤 Jack Dylan Grazer
      菲恩·伍法德 Finn Wolfhard
      杰登·馬泰爾 Jaeden Martell
      特洛伊·詹姆斯 Troy James
      哈維爾·博泰特 Javier Botet
      杰·瑞恩 Jay Ryan
      斯蒂芬·金 Stephen King
      杰克遜·羅伯特·斯科特 Jackson Robert Scott
      杰里米·雷·泰勒 Jeremy Ray Taylor
      澤維爾·多蘭 Xavier Dolan
      杰克·威利 Jake Weary
      尼古拉斯·漢密爾頓 Nicholas Hamilton
      杰絲·威克斯勒 Jess Weixler
      詹姆斯·蘭索恩 James Ransone
      瓦耶特·奧萊夫 Wyatt Oleff
      歐文·泰格 Owen Teague
      艾賽亞·穆斯塔法 Isaiah Mustafa
      安迪·比恩 Andy Bean
      蒂奇·格蘭特 Teach Grant
      泰勒·飛瑞 Taylor Frey
      賈森·福克斯 Jason Fuchs
      喬森·雅各布 Chosen Jacobs
      斯蒂夫·博加爾特 Stephen Bogaert
      洛根·湯普森 Logan Thompson
      杰克·辛 Jake Sim
      維爾·貝布林克 Will Beinbrink
      安東尼·尤埃西 Anthony Ulc


◎標  簽 恐怖 | 驚悚 | 美國 | 2019 | 小說改編 | 超自然 | 經典 | 小丑

◎簡  介

  故事發生在1989年夏季事件的27年后,失敗者俱樂部成員已經長大并搬走了,直到一個不詳的電話把他們召回緬因州的德利鎮,對抗他們古老、會變形的敵人—跳舞小丑潘尼懷斯。
Video
ID : 1
Format : AVC
Format/Info : Advanced Video Codec
Format profile : [email protected]
Format settings : CABAC / 4 Ref Frames
Format settings, CABAC : Yes
Format settings, Reference frames : 4 frames
Codec ID : avc1
Codec ID/Info : Advanced Video Coding
Duration : 2 h 44 min
Bit rate : 4 500 kb/s
Width : 1 920 pixels
Height : 800 pixels
Display aspect ratio : 2.40:1
Frame rate mode : Constant
Frame rate : 30.000 FPS
Color space : YUV
Chroma subsampling : 4:2:0
Bit depth : 8 bits
Scan type : Progressive
Bits/(Pixel*Frame) : 0.098
Stream size : 5.19 GiB (94%)
Title : It.Chapter.Two.2019.1080p.KORSUB.HDRip.x264.AAC2.0-STUTTERSHIT
Writing library : x264 core 148 r2748 97eaef2
Encoding settings : cabac=1 / ref=4 / deblock=1:0:0 / analyse=0x3:0x113 / me=umh / subme=9 / psy=1 / psy_rd=1.00:0.00 / mixed_ref=1 / me_range=16 / chroma_me=1 / trellis=2 / 8x8dct=1 / cqm=0 / deadzone=21,11 / fast_pskip=1 / chroma_qp_offset=-2 / threads=72 / lookahead_threads=6 / sliced_threads=0 / nr=0 / decimate=1 / interlaced=0 / bluray_compat=0 / constrained_intra=0 / bframes=3 / b_pyramid=2 / b_adapt=2 / b_bias=0 / direct=3 / weightb=1 / open_gop=0 / weightp=2 / keyint=250 / keyint_min=25 / scenecut=40 / intra_refresh=0 / rc_lookahead=50 / rc=abr / mbtree=1 / bitrate=4500 / ratetol=1.0 / qcomp=0.60 / qpmin=0 / qpmax=69 / qpstep=4 / ip_ratio=1.40 / aq=1:1.00
Codec configuration box : avcC

Audio
ID : 2
Format : AAC LC
Format/Info : Advanced Audio Codec Low Complexity
Codec ID : mp4a-40-2
Duration : 2 h 44 min
Duration_LastFrame : -10 ms
Bit rate mode : Constant
Bit rate : 256 kb/s
Channel(s) : 2 channels
Channel layout : L R
Sampling rate : 48.0 kHz
Frame rate : 46.875 FPS (1024 SPF)
Compression mode : Lossy
Stream size : 302 MiB (5%)
Title : It.Chapter.Two.2019.1080p.KORSUB.HDRip.x264.AAC2.0-STUTTERSHIT
Language : English
Default : Yes
Alternate group : 1





1 個附件 售價 大小 下載 時間

It.Chapter.Two.2019.1080p.KORSUB.HDRip.x264.AAC2.0-STUTTERSHIT.torrent 0 金幣 28.06K 10094 次 10天前

#1樓
發帖時間:2019-10-05 12:45:47   |   回復數:4
liangshaozhong
一派掌門
韓版?槍版?
10天前 #2樓
zuoer140709
小有名氣
高清的  韓版
10天前 #3樓
BoatJ
小有名氣
期待藍光的版本
4天前 #4樓
911degrees
隱世仙人♂
非常感謝,謝謝分享
1天前 #5樓
游客組