conanlcg
超級版主

[2015] [歐美] [驚悚] [WEB-720P] 遺失記憶 Estranged.2015.720p.AMZN.WEBRip.DDP2.0.x264-iKA 2.03GB

-->

帖子完整標題:遺失記憶 Estranged.2015.720p.AMZN.WEBRip.DDP2.0.x264-iKA 2.03GB




◎譯  名 遺失記憶 / January
◎片  名 Estranged
◎年  代 2015
◎產  地 英國
◎類  別 驚悚
◎語  言 英語
◎上映日期 2015-08-29(英國)
◎IMDb評分 5.4/10 from 1823 users
◎IMDb鏈接 http://www.imdb.com/title/tt1929276
◎豆瓣評分 5.9/10 from 55 users
◎豆瓣鏈接 https://movie.douban.com/subject/24704054/
◎片  長 101分鐘
◎導  演 Adam Levins
◎編  劇 William Borthwick / Simon Fantauzzo
◎主  演 詹姆斯·卡沙莫 James Cosmo
      Nora-Jane Noone
      Amy Manson
      Craig Conway


◎標  簽 英國 | 懸疑 | 驚悚 | 英國電影 | 英國驚悚 | 英國懸疑 | 懸疑恐怖 | 金剛字幕

◎簡  介

  January is forced to return home after six years traveling abroad. A near-fatal accident has left her temporarily wheelchair bound and depleted of her long-term memory. She is accompanied by her boyfriend 'Callum' whom she met whilst traveling. He was also the driver in the fateful accident. Not only has she forgotten her family, but her childhood as well and is surprised to discover that her home is a stately manor in the middle of the country-side. As January tries to settle in, she finds herself becoming even more estranged from her family, who just want their daughter back. The trouble is, she cannot remember who that daughter was, or why she ran away in the first place. Desperate to discover why she left all those years ago and with Callum's help, she sets out to find the truth. They soon discover the family are not as loving as they seem to be. Was there a dark reason why she left them in the first place?
Video
ID : 1
Format : AVC
Format/Info : Advanced Video Codec
Format profile : [email protected]
Format settings : CABAC / 4 Ref Frames
Format settings, CABAC : Yes
Format settings, Reference frames : 4 frames
Codec ID : V_MPEG4/ISO/AVC
Duration : 1 h 32 min
Bit rate mode : Constant
Bit rate : 2 918 kb/s
Nominal bit rate : 6 000 kb/s
Width : 1 280 pixels
Height : 720 pixels
Display aspect ratio : 16:9
Frame rate mode : Constant
Frame rate : 23.976 (24000/1001) FPS
Color space : YUV
Chroma subsampling : 4:2:0
Bit depth : 8 bits
Scan type : Progressive
Bits/(Pixel*Frame) : 0.132
Stream size : 1.88 GiB (93%)
Default : Yes
Forced : No
Color range : Limited
Color primaries : BT.709
Transfer characteristics : BT.709
Matrix coefficients : BT.709

Audio
ID : 2
Format : E-AC-3
Format/Info : Enhanced AC-3
Commercial name : Dolby Digital Plus
Codec ID : A_EAC3
Duration : 1 h 32 min
Bit rate mode : Constant
Bit rate : 224 kb/s
Channel(s) : 2 channels
Channel layout : L R
Sampling rate : 48.0 kHz
Frame rate : 31.250 FPS (1536 SPF)
Compression mode : Lossy
Stream size : 148 MiB (7%)
Language : English
Service kind : Complete Main
Default : Yes
Forced : No

Text
ID : 3
Format : UTF-8
Codec ID : S_TEXT/UTF8
Codec ID/Info : UTF-8 Plain Text
Duration : 1 h 27 min
Bit rate : 30 b/s
Count of elements : 855
Stream size : 19.7 KiB (0%)
Language : English
Default : No
Forced : No





1 個附件 售價 大小 下載 時間

Estranged.2015.720p.AMZN.WEBRip.DDP2.0.x264-iKA.torrent 0 金幣 20.81K 224 次 7天前

#1樓
發帖時間:2019-10-05 12:37:09   |   回復數:1
chulps
一代宗師
ddd
6天前 #2樓
游客組