conanlcg
超級版主

[2017] [歐美] [喜劇] [WEB-1080P] 貓和老鼠:查理和巧克力工廠/貓和老鼠:威利旺卡和巧克力工廠 Tom.And.Jerry.Willy.Wonka.And.The.Chocolate.Factor

-->

帖子完整標題:貓和老鼠:查理和巧克力工廠/貓和老鼠:威利旺卡和巧克力工廠 Tom.And.Jerry.Willy.Wonka.And.The.Chocolate.Factory.2017.1080p.AMZN.WEBRip.DDP5.1.x264-ABM 3.54GB




◎譯  名 貓和老鼠:查理和巧克力工廠 / 貓和老鼠:威利旺卡和巧克力工廠 / 貓和老鼠:查理與巧克力工廠
◎片  名 Tom and Jerry: Willy Wonka and the Chocolate Factory
◎年  代 2017
◎產  地 美國
◎類  別 喜劇 / 動畫 / 冒險
◎語  言 英語
◎上映日期 2017-06-27(美國)
◎IMDb評分 4.3/10 from 697 users
◎IMDb鏈接 http://www.imdb.com/title/tt6803390
◎豆瓣評分 5.9/10 from 826 users
◎豆瓣鏈接 https://movie.douban.com/subject/27046372/
◎片  長 79分鐘
◎導  演 Spike Brandt
◎編  劇 羅爾德·達爾 Roald Dahl / Gene Grillo
◎主  演 羅里·艾倫 Lori Alan
      杰夫·伯格曼 Jeff Bergman
      克蘭西·布朗 Clancy Brown
      杰斯·哈梅爾 Jess Harnell
      理查德·麥克格納格爾 Richard McGonagle
      林肯·梅爾徹 Lincoln Melcher
      艾米麗·奧布萊恩 Emily O'Brien
      格雷格·埃利斯 Greg Ellis
      凱特·索西 Kath Soucie
      Spike Brandt
      Rachel Butera
      Kate Higgins
      JP Karliak
      Dallas Lovato
      Sean Schemmel


◎標  簽 動畫 | 貓和老鼠 | 美國 | 喜劇 | 2017 | 電影 | 經典配經典 | 動畫電影

◎簡  介

  湯姆和杰瑞又回來啦!全新動畫電影[貓和老鼠:查理和巧克力工廠]釋出海報和全新劇照。湯姆和杰瑞將陪伴男孩查理進入奇妙的巧克力工廠,共度一段不可思議的冒險。狗狗斯派克和泰克、杰瑞收養的小灰鼠泰菲也將出鏡。本作將于7月11日DVD發售,6月27日有線播出。
Video
ID : 1
Format : AVC
Format/Info : Advanced Video Codec
Format profile : [email protected]
Format settings : CABAC / 4 Ref Frames
Format settings, CABAC : Yes
Format settings, Reference frames : 4 frames
Codec ID : V_MPEG4/ISO/AVC
Duration : 1 h 19 min
Bit rate mode : Variable
Bit rate : 5 756 kb/s
Maximum bit rate : 15.0 Mb/s
Width : 1 920 pixels
Height : 1 080 pixels
Display aspect ratio : 16:9
Frame rate mode : Constant
Frame rate : 23.976 (24000/1001) FPS
Color space : YUV
Chroma subsampling : 4:2:0
Bit depth : 8 bits
Scan type : Progressive
Bits/(Pixel*Frame) : 0.116
Stream size : 3.19 GiB (90%)
Default : Yes
Forced : No
Color range : Limited
Color primaries : BT.709
Transfer characteristics : BT.709
Matrix coefficients : BT.709

Audio
ID : 2
Format : E-AC-3
Format/Info : Enhanced AC-3
Commercial name : Dolby Digital Plus
Codec ID : A_EAC3
Duration : 1 h 19 min
Bit rate mode : Constant
Bit rate : 640 kb/s
Channel(s) : 6 channels
Channel layout : L R C LFE Ls Rs
Sampling rate : 48.0 kHz
Frame rate : 31.250 FPS (1536 SPF)
Compression mode : Lossy
Stream size : 363 MiB (10%)
Language : English
Service kind : Complete Main
Default : Yes
Forced : No

Text
ID : 3
Format : UTF-8
Codec ID : S_TEXT/UTF8
Codec ID/Info : UTF-8 Plain Text
Duration : 1 h 19 min
Bit rate : 66 b/s
Count of elements : 1332
Stream size : 38.3 KiB (0%)
Language : English
Default : No
Forced : No





1 個附件 售價 大小 下載 時間

Tom.And.Jerry.Willy.Wonka.And.The.Chocolate.Factory.2017.1080p.AMZN.WEBRip.DDP5.1.x264-ABM.torrent 0 金幣 36.05K 616 次 10天前

#1樓
發帖時間:2019-10-05 12:35:58   |   回復數:1
911degrees
隱世仙人♂
非常感謝,謝謝分享
1天前 #2樓
游客組