conanlcg
超級版主

[更 早] [歐美] [喜劇] [WEB-1080P] 逍遙天堂 Club.Paradise.1986.1080p.WEBRip.x264-RARBG 1.82GB

-->

帖子完整標題:逍遙天堂 Club.Paradise.1986.1080p.WEBRip.x264-RARBG 1.82GB




◎譯  名 逍遙天堂
◎片  名 Club Paradise
◎年  代 1986
◎產  地 美國
◎類  別 喜劇
◎語  言 英語
◎上映日期 1986-07-11
◎IMDb評分 5.1/10 from 5524 users
◎IMDb鏈接 http://www.imdb.com/title/tt0090856
◎豆瓣評分 6.5/10 from 63 users
◎豆瓣鏈接 https://movie.douban.com/subject/1295618/
◎片  長 96 分鐘
◎導  演 哈羅德 雷米斯 (Harold Ramis)
◎編  劇 布賴恩 多依爾-瑪麗 (Brian Doyle-Murray) / Chris Miller (III) / David Standish
◎主  演 Robin Williams
      Peter O'Toole
      Rick Moranis
      Jimmy Cliff
      Eugene Levy
      Adolph Caesar
      Twiggy
      Andrea Martin


◎標  簽 喜劇 | 美國 | 羅賓·威廉斯 | 羅賓·威廉姆斯 | 美國電影 | 1986 | cctv6 | RobinWilliams

◎簡  介

  Injured while risking his life to save an angry German shepard, Chicago Firefighter Jack Moniker retires and moves to a small carribean island named St. Nicholas. There, he is befriended by the owner of a run-down resort, Ernest Reed. Greedy developers are schemeing to wrest Reed's coveted beach front property from him for non-payment of taxes. Jack comes to Ernest's rescue, and together they renovate and reopen the resort catering to affluent Americans. The film follows the zany exploits of the proprietors, guests and various colorful island denizans, as they break in the new "Club Paradise".
Video
ID : 1
Format : AVC
Format/Info : Advanced Video Codec
Format profile : [email protected]
Format settings : CABAC / 4 Ref Frames
Format settings, CABAC : Yes
Format settings, Reference frames : 4 frames
Codec ID : avc1
Codec ID/Info : Advanced Video Coding
Duration : 1 h 35 min
Bit rate : 2 500 kb/s
Width : 1 920 pixels
Height : 1 080 pixels
Display aspect ratio : 16:9
Frame rate mode : Constant
Frame rate : 23.976 (23976/1000) FPS
Color space : YUV
Chroma subsampling : 4:2:0
Bit depth : 8 bits
Scan type : Progressive
Bits/(Pixel*Frame) : 0.050
Stream size : 1.67 GiB (92%)
Writing library : x264 core 152 r2851M ba24899
Encoding settings : cabac=1 / ref=4 / deblock=1:-1:-1 / analyse=0x3:0x113 / me=umh / subme=9 / psy=1 / psy_rd=1.00:0.15 / mixed_ref=1 / me_range=24 / chroma_me=1 / trellis=2 / 8x8dct=1 / cqm=0 / deadzone=21,11 / fast_pskip=1 / chroma_qp_offset=-3 / threads=16 / lookahead_threads=4 / sliced_threads=0 / nr=0 / decimate=1 / interlaced=0 / bluray_compat=0 / constrained_intra=0 / bframes=3 / b_pyramid=2 / b_adapt=2 / b_bias=0 / direct=3 / weightb=1 / open_gop=0 / weightp=2 / keyint=250 / keyint_min=25 / scenecut=40 / intra_refresh=0 / rc_lookahead=50 / rc=2pass / mbtree=1 / bitrate=2500 / ratetol=1.0 / qcomp=0.60 / qpmin=0 / qpmax=69 / qpstep=4 / cplxblur=20.0 / qblur=0.5 / vbv_maxrate=31250 / vbv_bufsize=31250 / nal_hrd=none / filler=0 / ip_ratio=1.40 / aq=3:1.00
Encoded date : UTC 2019-10-05 00:55:06
Tagged date : UTC 2019-10-05 00:55:06
Codec configuration box : avcC

Audio
ID : 2
Format : AAC LC
Format/Info : Advanced Audio Codec Low Complexity
Codec ID : mp4a-40-2
Duration : 1 h 35 min
Duration_LastFrame : -11 ms
Bit rate mode : Constant
Bit rate : 224 kb/s
Channel(s) : 2 channels
Channel layout : L R
Sampling rate : 48.0 kHz
Frame rate : 46.875 FPS (1024 SPF)
Compression mode : Lossy
Stream size : 153 MiB (8%)
Language : English
Default : Yes
Alternate group : 1
Encoded date : UTC 2019-10-05 00:55:06
Tagged date : UTC 2019-10-05 00:55:06





1 個附件 售價 大小 下載 時間

Club.Paradise.1986.1080p.WEBRip.x264-RARBG.torrent 0 金幣 18.79K 231 次 10天前

#1樓
發帖時間:2019-10-05 12:21:45   |   回復數:1
911degrees
隱世仙人♂
非常感謝,謝謝分享
1天前 #2樓
游客組