conanlcg
超級版主

[更 早] [歐美] [喜劇] [BD-720P] 我是間諜/吾系特務 I.Spy.2002.720p.BluRay.x264-PSYCHD 5.48GB

-->

帖子完整標題:我是間諜/吾系特務 I.Spy.2002.720p.BluRay.x264-PSYCHD 5.48GB




◎譯  名 我是間諜 / 吾系特務 / 金牌間諜
◎片  名 I Spy
◎年  代 2002
◎產  地 美國
◎類  別 喜劇 / 動作 / 驚悚 / 冒險
◎語  言 英語 / 匈牙利語 / 俄語
◎上映日期 2002-11-01
◎IMDb評分 5.4/10 from 46850 users
◎IMDb鏈接 http://www.imdb.com/title/tt0297181
◎豆瓣評分 6.2/10 from 1630 users
◎豆瓣鏈接 https://movie.douban.com/subject/1300162/
◎片  長 97 分鐘
◎導  演 Betty Thomas
◎編  劇 Marianne Wibberley / Cormac Wibberley
◎主  演 Eddie Murphy
      Owen Wilson
      Famke Janssen
      馬爾科姆·麥克道威爾 Malcolm McDowell


◎標  簽 喜劇 | 美國 | 動作 | 間諜 | 美國電影 | 2002 | OwenWilson | EddieMurphy

◎簡  介

  當美國政府迄今為止最為復雜、機密的戰斗機Switchblade原形機被偷走以后,美國的頂尖間諜亞歷克斯-斯科特(Alex Scott,歐文-威爾遜飾,Owen Wilson)受命前去偵破這個案子。他所預想不到的是將與一位清高自大的世界拳擊冠軍凱利-魯濱遜(Kelly Robinson,埃迪-墨菲飾,Eddie Murphy)一起去執行這項危險絕密的間諜行動。他們的任務是:以應因的技巧和詼諧,抓住世界上最為成功的非法軍火商之一的阿諾德-岡達斯 (Arnold Gundars,馬爾科姆-麥克道爾飾,Malcolm McDowell),挫敗他針對這架飛機的陰謀。
Video
ID : 1
Format : AVC
Format/Info : Advanced Video Codec
Format profile : [email protected]
Format settings : CABAC / 5 Ref Frames
Format settings, CABAC : Yes
Format settings, Reference frames : 5 frames
Codec ID : V_MPEG4/ISO/AVC
Duration : 1 h 36 min
Bit rate : 6 592 kb/s
Width : 1 280 pixels
Height : 696 pixels
Display aspect ratio : 1.85:1
Frame rate mode : Constant
Frame rate : 23.976 (24000/1001) FPS
Color space : YUV
Chroma subsampling : 4:2:0
Bit depth : 8 bits
Scan type : Progressive
Bits/(Pixel*Frame) : 0.309
Stream size : 4.34 GiB (79%)
Writing library : x264 core 158 r2984 3759fcb
Encoding settings : cabac=1 / ref=5 / deblock=1:-3:-3 / analyse=0x3:0x113 / me=umh / subme=8 / psy=1 / psy_rd=1.10:0.00 / mixed_ref=1 / me_range=24 / chroma_me=1 / trellis=2 / 8x8dct=1 / cqm=0 / deadzone=21,11 / fast_pskip=1 / chroma_qp_offset=-2 / threads=22 / lookahead_threads=3 / sliced_threads=0 / nr=0 / decimate=1 / interlaced=0 / bluray_compat=0 / constrained_intra=0 / bframes=3 / b_pyramid=2 / b_adapt=2 / b_bias=0 / direct=3 / weightb=1 / open_gop=0 / weightp=2 / keyint=240 / keyint_min=24 / scenecut=40 / intra_refresh=0 / rc_lookahead=50 / rc=2pass / mbtree=1 / bitrate=6592 / ratetol=1.0 / qcomp=0.60 / qpmin=0 / qpmax=69 / qpstep=4 / cplxblur=20.0 / qblur=0.5 / ip_ratio=1.40 / aq=3:0.70
Default : Yes
Forced : No
Statistics Tags Issue : no_variable_data 1970-01-01 00:00:00 / no_variable_data 2010-02-22 21:41:29
FromStats_BitRate : 6589580
FromStats_Duration : 01:36:32.912000000
FromStats_FrameCount : 138891
FromStats_StreamSize : 4771607380

Audio
ID : 2
Format : DTS
Format/Info : Digital Theater Systems
Codec ID : A_DTS
Duration : 1 h 36 min
Bit rate mode : Constant
Bit rate : 1 509 kb/s
Channel(s) : 6 channels
Channel layout : C L R Ls Rs LFE
Sampling rate : 48.0 kHz
Frame rate : 93.750 FPS (512 SPF)
Bit depth : 24 bits
Compression mode : Lossy
Stream size : 1.02 GiB (19%)
Language : English
Default : Yes
Forced : No
Statistics Tags Issue : no_variable_data 1970-01-01 00:00:00 / no_variable_data 2010-02-22 21:41:29
FromStats_BitRate : 1509000
FromStats_Duration : 01:36:32.160000000
FromStats_FrameCount : 543015
FromStats_StreamSize : 1092546180

Text #1
ID : 3
Format : UTF-8
Codec ID : S_TEXT/UTF8
Codec ID/Info : UTF-8 Plain Text
Language : English
Default : No
Forced : No
Statistics Tags Issue : no_variable_data 1970-01-01 00:00:00 / no_variable_data 2010-02-22 21:41:29
FromStats_BitRate : 99
FromStats_Duration : 01:29:56.056000000
FromStats_FrameCount : 1571
FromStats_StreamSize : 67368

Text #2
ID : 4
Format : UTF-8
Codec ID : S_TEXT/UTF8
Codec ID/Info : UTF-8 Plain Text
Title : SDH
Language : English
Default : No
Forced : No
Statistics Tags Issue : no_variable_data 1970-01-01 00:00:00 / no_variable_data 2010-02-22 21:41:29
FromStats_BitRate : 95
FromStats_Duration : 01:29:56.141000000
FromStats_FrameCount : 1574
FromStats_StreamSize : 64581

Text #3
ID : 5
Format : UTF-8
Codec ID : S_TEXT/UTF8
Codec ID/Info : UTF-8 Plain Text
Language : English
Default : No
Forced : No
Statistics Tags Issue : no_variable_data 1970-01-01 00:00:00 / no_variable_data 2010-02-22 21:41:29
FromStats_BitRate : 93
FromStats_Duration : 01:29:56.141000000
FromStats_FrameCount : 1521
FromStats_StreamSize : 62742

Menu
00:00:00.000 : en:Chapter 01
00:10:02.227 : en:Chapter 02
00:20:02.201 : en:Chapter 03
00:30:02.801 : en:Chapter 04
00:40:03.401 : en:Chapter 05
00:50:04.627 : en:Chapter 06
01:00:05.227 : en:Chapter 07
01:10:05.201 : en:Chapter 08
01:20:05.801 : en:Chapter 09
01:30:06.401 : en:Chapter 10





1 個附件 售價 大小 下載 時間

I.Spy.2002.720p.BluRay.x264-PSYCHD.torrent 0 金幣 28.21K 581 次 8天前

#1樓
發帖時間:2019-10-05 11:55:23   |   回復數:0
游客組