conanlcg
超級版主

[2014] [其他] [劇情] [BD-1080P] 垃圾男孩/拾荒男孩 Trash.2014.1080p.BluRay.x264-ROVERS 8.74GB

-->

帖子完整標題:垃圾男孩/拾荒男孩 Trash.2014.1080p.BluRay.x264-ROVERS 8.74GB




◎譯  名 垃圾男孩 / 拾荒男孩
◎片  名 Trash
◎年  代 2014
◎產  地 英國 / 巴西
◎類  別 劇情 / 懸疑 / 驚悚 / 犯罪 / 冒險
◎語  言 葡萄牙語 / 英語
◎上映日期 2014-10-07(里約熱內盧電影節) / 2014-10-09(巴西) / 2015-01-30(英國)
◎IMDb評分 7.2/10 from 18941 users
◎IMDb鏈接 http://www.imdb.com/title/tt1921149
◎豆瓣評分 7.5/10 from 4783 users
◎豆瓣鏈接 https://movie.douban.com/subject/7059561/
◎片  長 114分鐘
◎導  演 史蒂芬·戴德利 Stephen Daldry / 克里斯蒂安·杜沃特 Christian Duurvoort
◎編  劇 理查德·柯蒂斯 Richard Curtis / 安迪·穆里根 Andy Mulligan / 費利佩·布拉加 Felipe Braga
◎主  演 里克森·特維茲 Rickson Tevez
      瓦格納·莫拉 Wagner Moura
      喬斯·多蒙特 José Dumont
      丹尼爾·澤托 Daniel Zettel
      愛德華多·路易斯 Eduardo Luis
      路易斯·費利佩·達·席爾瓦·科斯塔 Luis Felipe da Silva Costa
      加布里埃爾·迪亞士·達·科斯塔·席爾瓦 Gabriel Dias da Costa Silva
      塞騰·米洛 Selton Mello
      斯蒂恩·內塞西安 Stepan Nercessian
      特卡·佩雷拉 Teca Pereira
      魯妮·瑪拉 Rooney Mara
      萊蒂西亞·庫尼亞·卡馬拉·佩雷拉·德卡瓦略 Letícia Cunha Camara Pereira de Carvalho
      拉斐爾·德·拜爾斯 Rafael de Biase
      馬汀·舍倫 Martin Sheen
      伊拉·戈麥茲 Israel Gomes
      熱蘇伊塔·巴爾博薩 Jesuita Barbosa
      查爾斯·帕拉文蒂 Charles Paraventi
      萊安德魯·菲爾米諾 Leandro Firmino
      安德烈·拉米羅 André Ramiro
      納爾遜·澤維爾 Nelson Xavier
      阿德里亞諾·加里布 Adriano Garib
      儒利奧·安德拉德 Júlio Andrade
      克里斯汀·阿曼普 Christiane Amanpour


◎標  簽 巴西 | 劇情 | 犯罪 | 冒險 | 美國 | 2014 | 兒童 | 人性

◎簡  介

  拉斐爾是一個拾荒男孩,他在垃圾山每天靠篩分垃圾為生。然而一個幸運而又不幸的一天將他的世界就此改變。這天他無意拾到了一個小錢包,一個充滿謎團、線索并足以改變一切的錢包。然而不久,拉斐爾和他的朋友便遭到了腐敗警方的追捕,三個男孩便與警方展開了斗智斗勇的追逐。漸漸地,他們逐漸發現這里面是一個關于一位死去的男人未完成的使命,三個拾荒男孩決心接手這份使命,他們將要獨自面對危機四伏的世界......
Video
ID : 1
Format : AVC
Format/Info : Advanced Video Codec
Format profile : [email protected]
Format settings, CABAC : Yes
Format settings, ReFrames : 5 frames
Codec ID : V_MPEG4/ISO/AVC
Duration : 1 h 53 min
Bit rate : 9 495 kb/s
Width : 1 920 pixels
Height : 816 pixels
Display aspect ratio : 2.35:1
Frame rate mode : Constant
Frame rate : 23.976 FPS
Color space : YUV
Chroma subsampling : 4:2:0
Bit depth : 8 bits
Scan type : Progressive
Bits/(Pixel*Frame) : 0.253
Stream size : 7.37 GiB (84%)
Writing library : x264 core 144 r2525 40bb568
Encoding settings : cabac=1 / ref=5 / deblock=1:0:0 / analyse=0x3:0x133 / me=umh / subme=7 / psy=1 / psy_rd=1.00:0.00 / mixed_ref=1 / me_range=16 / chroma_me=1 / trellis=1 / 8x8dct=1 / cqm=0 / deadzone=21,11 / fast_pskip=0 / chroma_qp_offset=-2 / threads=60 / lookahead_threads=6 / sliced_threads=0 / nr=0 / decimate=1 / interlaced=0 / bluray_compat=0 / constrained_intra=0 / bframes=3 / b_pyramid=2 / b_adapt=1 / b_bias=0 / direct=1 / weightb=1 / open_gop=0 / weightp=2 / keyint=250 / keyint_min=23 / scenecut=40 / intra_refresh=0 / rc_lookahead=40 / rc=2pass / mbtree=1 / bitrate=9495 / ratetol=1.0 / qcomp=0.60 / qpmin=0 / qpmax=69 / qpstep=4 / cplxblur=20.0 / qblur=0.5 / ip_ratio=1.40 / aq=1:1.00
Language : English
Default : Yes
Forced : No

Audio
ID : 2
Format : DTS
Format/Info : Digital Theater Systems
Mode : 16
Format settings, Endianness : Big
Codec ID : A_DTS
Duration : 1 h 53 min
Bit rate mode : Constant
Bit rate : 1 509 kb/s
Channel(s) : 6 channels
Channel positions : Front: L C R, Side: L R, LFE
Sampling rate : 48.0 kHz
Frame rate : 93.750 FPS (512 spf)
Bit depth : 24 bits
Compression mode : Lossy
Stream size : 1.20 GiB (14%)
Language : English
Default : Yes
Forced : No

Text
ID : 3
Format : UTF-8
Codec ID : S_TEXT/UTF8
Codec ID/Info : UTF-8 Plain Text
Title : English-Forced
Language : English
Default : Yes
Forced : Yes

Menu
00:00:00.000 : en:00:00:00.000
00:05:41.633 : en:00:05:41.633
00:11:27.312 : en:00:11:27.312
00:17:52.071 : en:00:17:52.071
00:23:32.953 : en:00:23:32.953
00:31:00.067 : en:00:31:00.067
00:38:09.787 : en:00:38:09.787
00:43:48.251 : en:00:43:48.251
00:53:26.829 : en:00:53:26.829
01:01:26.975 : en:01:01:26.975
01:08:38.990 : en:01:08:38.990
01:15:59.597 : en:01:15:59.597
01:23:51.193 : en:01:23:51.193
01:26:58.380 : en:01:26:58.380
01:29:23.358 : en:01:29:23.358
01:33:26.726 : en:01:33:26.726
01:37:48.905 : en:01:37:48.905
01:40:39.408 : en:01:40:39.408
01:44:04.113 : en:01:44:04.113
01:49:13.964 : en:01:49:13.964





1 個附件 售價 大小 下載 時間

Trash.2014.1080p.BluRay.x264-ROVERS.torrent 0 金幣 87.89K 637 次 7天前

#1樓
發帖時間:2019-10-05 11:51:57   |   回復數:0
游客組