conanlcg
超級版主

[2012] [歐美] [其他] [BD-1080P] 死亡樂隊 A.Band.Called.Death.2012.1080p.BluRay.x264-GECKOS 7.94GB

-->

帖子完整標題:死亡樂隊 A.Band.Called.Death.2012.1080p.BluRay.x264-GECKOS 7.94GB




◎譯  名 死亡樂隊
◎片  名 A Band Called Death
◎年  代 2012
◎產  地 美國
◎類  別 紀錄片
◎語  言 英語
◎上映日期 2012-06-16(洛杉磯電影節) / 2013-06-28(美國)
◎IMDb評分 7.5/10 from 3320 users
◎IMDb鏈接 http://www.imdb.com/title/tt2064713
◎豆瓣評分 7.5/10 from 41 users
◎豆瓣鏈接 https://movie.douban.com/subject/21336161/
◎片  長 98分鐘
◎導  演 Mark Christopher Covino / Jeff Howlett
◎主  演 Alice Cooper
      Bobby Hackney
      Dannis Hackney
      亨瑞·羅林斯 Henry Rollins


◎標  簽 紀錄片 | 音樂 | 美國 | 2012 | 搖滾 | 美國電影 | Documentary | 2013

◎簡  介

  A documentary on the 1970s punk trio Death, and their new-found popularity decades after they disbanded.
Video
ID : 3
Format : AVC
Format/Info : Advanced Video Codec
Format profile : [email protected]
Format settings : CABAC / 4 Ref Frames
Format settings, CABAC : Yes
Format settings, Reference frames : 4 frames
Codec ID : V_MPEG4/ISO/AVC
Duration : 1 h 36 min
Bit rate : 10.3 Mb/s
Width : 1 920 pixels
Height : 1 080 pixels
Display aspect ratio : 16:9
Frame rate mode : Constant
Frame rate : 23.976 (24000/1001) FPS
Color space : YUV
Chroma subsampling : 4:2:0
Bit depth : 8 bits
Scan type : Progressive
Bits/(Pixel*Frame) : 0.208
Stream size : 6.77 GiB (85%)
Writing library : x264 core 133 r2334 a3ac64b
Encoding settings : cabac=1 / ref=4 / deblock=1:0:0 / analyse=0x3:0x133 / me=umh / subme=7 / psy=1 / psy_rd=1.00:0.00 / mixed_ref=1 / me_range=16 / chroma_me=1 / trellis=1 / 8x8dct=1 / cqm=0 / deadzone=21,11 / fast_pskip=0 / chroma_qp_offset=-2 / threads=36 / lookahead_threads=6 / sliced_threads=0 / nr=0 / decimate=1 / interlaced=0 / bluray_compat=0 / constrained_intra=0 / bframes=3 / b_pyramid=2 / b_adapt=1 / b_bias=0 / direct=1 / weightb=1 / open_gop=0 / weightp=2 / keyint=250 / keyint_min=23 / scenecut=40 / intra_refresh=0 / rc_lookahead=40 / rc=2pass / mbtree=1 / bitrate=10348 / ratetol=1.0 / qcomp=0.60 / qpmin=0 / qpmax=69 / qpstep=4 / cplxblur=20.0 / qblur=0.5 / ip_ratio=1.40 / aq=1:1.00
Language : English
Default : Yes
Forced : No

Audio
ID : 1
Format : DTS
Format/Info : Digital Theater Systems
Codec ID : A_DTS
Duration : 1 h 36 min
Bit rate mode : Constant
Bit rate : 1 509 kb/s
Channel(s) : 6 channels
Channel layout : C L R Ls Rs LFE
Sampling rate : 48.0 kHz
Frame rate : 93.750 FPS (512 SPF)
Bit depth : 16 bits
Compression mode : Lossy
Stream size : 1.01 GiB (13%)
Language : English
Default : Yes
Forced : No

Text
ID : 2
Format : UTF-8
Codec ID : S_TEXT/UTF8
Codec ID/Info : UTF-8 Plain Text
Language : English
Default : Yes
Forced : No





1 個附件 售價 大小 下載 時間

A.Band.Called.Death.2012.1080p.BluRay.x264-GECKOS.torrent 0 金幣 40.25K 210 次 10天前

#1樓
發帖時間:2019-10-05 11:49:03   |   回復數:1
911degrees
隱世仙人♂
非常感謝,謝謝分享
1天前 #2樓
游客組