conanlcg
超級版主

[更 早] [歐美] [劇情] [BD-1080P] 遠大前程/孤星血淚 Great.Expectations.1946.1080p.BluRay.x264-hV 7.94GB

-->

帖子完整標題:遠大前程/孤星血淚 Great.Expectations.1946.1080p.BluRay.x264-hV 7.94GB




◎譯  名 遠大前程 / 孤星血淚
◎片  名 Great Expectations
◎年  代 1946
◎產  地 英國
◎類  別 劇情 / 愛情
◎語  言 英語
◎上映日期 1946-12-26(英國)
◎IMDb評分 7.8/10 from 20573 users
◎IMDb鏈接 http://www.imdb.com/title/tt0038574
◎豆瓣評分 7.8/10 from 2261 users
◎豆瓣鏈接 https://movie.douban.com/subject/1297550/
◎片  長 118 分鐘
◎導  演 David Lean
◎編  劇 David Lean / Cecil McGivern / Ronald Neame / Kay Walsh / Anthony Havelock-Allan / Charles Dickens
◎主  演 John Mills
      Anthony Wager
      Valerie Hobson
      Jean Simmons
      Bernard Miles
      Francis L. Sullivan
      Finlay Currie
      Martita Hunt
      Alec Guinness


◎標  簽 英國 | 狄更斯 | 名著改編 | 大衛·里恩 | 英國電影 | 黑白 | 1946 | DavidLean

◎簡  介

  少年皮普(John Mills,Tony Wager 飾)父母雙亡,依靠姐姐與鐵匠姐夫生活,在閉塞的英國鄉下,皮普受到的只是粗暴的管教。臨近監獄的兩名犯人逃脫,皮普出于善良向其中一個提供了食物,盡管犯人很快歸案,但入獄前不忘提皮普開脫。不久附近豪宅內的哈維森小姐召皮普為自己服務,皮普一家視之為出頭的機會,怎料哈維森小姐年輕時被男人所傷,一心只想培養養女愛斯泰納(Valerie Hobson,Jean Simmons 飾)報復男人。
  皮普很快步入了宿命般的鐵匠生活,不覺六年過去。一位神秘的資助人出錢令皮普進入上流社會,皮普經過在倫敦的學習脫胎換骨,然而他久久不能忘懷少年時的初戀愛斯泰納,幕后的資助人麥戈維奇——當年的逃犯——此時突然出現,皮普決意同麥戈維奇一起離開英國,但警察早已監視他們多時……
  本片獲1948年奧斯卡獎最佳攝影獎、最佳美工設計獎。根據查爾斯·狄更斯同名小說改編。

◎獲獎情況

  第20屆奧斯卡金像獎(1948)
  最佳影片(提名)
  最佳導演(提名) 大衛·里恩
  最佳編劇(提名) A·哈維洛克-艾倫 / 羅納德·尼姆 / 大衛·里恩
  黑白片最佳攝影 蓋伊·格林
  黑白片最佳藝術指導和布景 Wilfred Shingleton / John Bryan
Video
ID : 1
Format : AVC
Format/Info : Advanced Video Codec
Format profile : [email protected]
Format settings : CABAC / 3 Ref Frames
Format settings, CABAC : Yes
Format settings, Reference frames : 3 frames
Codec ID : V_MPEG4/ISO/AVC
Duration : 1 h 58 min
Bit rate mode : Variable
Bit rate : 8 795 kb/s
Maximum bit rate : 38.0 Mb/s
Width : 1 476 pixels
Height : 1 080 pixels
Display aspect ratio : 4:3
Frame rate mode : Constant
Frame rate : 24.000 FPS
Color space : YUV
Chroma subsampling : 4:2:0
Bit depth : 8 bits
Scan type : Progressive
Bits/(Pixel*Frame) : 0.230
Stream size : 7.26 GiB (91%)
Language : English
Default : Yes
Forced : No

Audio
ID : 2
Format : AC-3
Format/Info : Audio Coding 3
Commercial name : Dolby Digital
Codec ID : A_AC3
Duration : 1 h 58 min
Bit rate mode : Constant
Bit rate : 640 kb/s
Channel(s) : 2 channels
Channel layout : L R
Sampling rate : 48.0 kHz
Frame rate : 31.250 FPS (1536 SPF)
Bit depth : 16 bits
Compression mode : Lossy
Stream size : 541 MiB (7%)
Service kind : Complete Main
Default : Yes
Forced : No





1 個附件 售價 大小 下載 時間

Great.Expectations.1946.1080p.BluRay.x264-hV.torrent 0 金幣 40.24K 504 次 10天前

#1樓
發帖時間:2019-10-05 11:46:10   |   回復數:1
911degrees
隱世仙人♂
非常感謝,謝謝分享
1天前 #2樓
游客組