conanlcg
超級版主

[2008] [歐美] [其他] [BD-1080P] 漢娜/米莉演唱會/孟漢娜3D立體演唱會 Hannah.Montana.Miley.Cyrus.Best.Of.Both.Worlds.Concert.Tour.

-->

帖子完整標題:漢娜/米莉演唱會/孟漢娜3D立體演唱會 Hannah.Montana.Miley.Cyrus.Best.Of.Both.Worlds.Concert.Tour.2008.1080p.BluRay.x264-SUNSPOT 7.95GB




◎譯  名 漢娜/米莉演唱會 / 孟漢娜3D立體演唱會 / 孟漢娜與米莉之雙重精彩巡演 / 孟漢娜之世界巡演臺前幕后 / 漢娜與米莉之雙重精彩巡演 / 漢娜蒙塔納 / 麥莉塞勒斯:雙重精彩巡回演唱會 / 米莉演唱會紀實
◎片  名 Hannah Montana / Miley Cyrus: Best of Both Worlds Concert Tour
◎年  代 2008
◎產  地 美國
◎類  別 紀錄片 / 音樂
◎語  言 英語
◎上映日期 2008-02-01
◎IMDb評分 2.3/10 from 8382 users
◎IMDb鏈接 http://www.imdb.com/title/tt1127884
◎豆瓣評分 7.2/10 from 448 users
◎豆瓣鏈接 https://movie.douban.com/subject/2343213/
◎片  長 USA: 74 分鐘
◎導  演 Bruce Hendricks
◎主  演 Miley Cyrus


◎標  簽 音樂 | 美國 | MileyCyrus | disney | hannah | 美國電影 | DisneyChannel | 2008

◎簡  介

  Disney 大火青少年劇新星準備08年的環美演唱,09的同名電影。Miley Cyrus 自小和父親一起生活,鐘愛音樂,第一次獻藝是在超級市場門口等父親時候,自彈自唱大受歡迎。
  來自 Ellen DeGeneres Show 訪談,sonychen reviews
  A 3-D concert film of the 2007 Hannah Montana/Miley Cyrus tour.
Video
ID : 1
Format : AVC
Format/Info : Advanced Video Codec
Format profile : [email protected]
Format settings : CABAC / 4 Ref Frames
Format settings, CABAC : Yes
Format settings, Reference frames : 4 frames
Codec ID : V_MPEG4/ISO/AVC
Duration : 1 h 22 min
Bit rate : 12.3 Mb/s
Width : 1 920 pixels
Height : 1 040 pixels
Display aspect ratio : 1.85:1
Frame rate mode : Constant
Frame rate : 23.976 (24000/1001) FPS
Color space : YUV
Chroma subsampling : 4:2:0
Bit depth : 8 bits
Scan type : Progressive
Bits/(Pixel*Frame) : 0.257
Stream size : 6.92 GiB (87%)
Writing library : x264 core 61 r948M 9d4d168
Encoding settings : cabac=1 / ref=4 / deblock=1:0:0 / analyse=0x3:0x113 / me=umh / subme=7 / psy_rd=1.0:1.0 / brdo=1 / mixed_ref=1 / me_range=24 / chroma_me=1 / trellis=2 / 8x8dct=1 / cqm=0 / deadzone=21,11 / chroma_qp_offset=-4 / threads=6 / nr=0 / decimate=1 / mbaff=0 / bframes=12 / b_pyramid=1 / b_adapt=1 / b_bias=0 / direct=1 / wpredb=1 / bime=1 / keyint=299 / keyint_min=25 / scenecut=40(pre) / rc=2pass / bitrate=12293 / ratetol=1.0 / rceq=\'blurCplx^(1-qComp)\' / qcomp=1.00 / qpmin=10 / qpmax=51 / qpstep=4 / cplxblur=20.0 / qblur=0.5 / ip_ratio=1.40 / pb_ratio=1.30 / aq=2:1.00
Default : Yes
Forced : No

Audio
ID : 2
Format : DTS
Format/Info : Digital Theater Systems
Codec ID : A_DTS
Duration : 1 h 22 min
Bit rate mode : Constant
Bit rate : 1 509 kb/s
Channel(s) : 6 channels
Channel layout : C L R Ls Rs LFE
Sampling rate : 48.0 kHz
Frame rate : 93.750 FPS (512 SPF)
Bit depth : 24 bits
Compression mode : Lossy
Stream size : 889 MiB (11%)
Default : Yes
Forced : No





1 個附件 售價 大小 下載 時間

Hannah.Montana.Miley.Cyrus.Best.Of.Both.Worlds.Concert.Tour.2008.1080p.BluRay.x264-SUNSPOT.torrent 0 金幣 40.34K 525 次 9天前

#1樓
發帖時間:2019-10-05 11:44:10   |   回復數:1
911degrees
隱世仙人♂
非常感謝,謝謝分享
10小時前 #2樓
游客組