conanlcg
超級版主

[2007] [其他] [動作] [BD-1080P] 男兒本色 Invisible.Target.2007.1080p.Bluray.x264-DEFiNiTE 10.11GB

-->

帖子完整標題:男兒本色 Invisible.Target.2007.1080p.Bluray.x264-DEFiNiTE 10.11GB




◎譯  名 Invisible Target
◎片  名 男兒本色
◎年  代 2007
◎產  地 中國大陸 / 中國香港
◎類  別 動作 / 犯罪
◎語  言 漢語普通話 / 粵語
◎上映日期 2007-07-19(中國香港)
◎IMDb評分 6.7/10 from 2674 users
◎IMDb鏈接 http://www.imdb.com/title/tt0995739
◎豆瓣評分 6.9/10 from 61529 users
◎豆瓣鏈接 https://movie.douban.com/subject/2080133/
◎片  長 129分鐘
◎導  演 陳木勝 Benny Chan
◎編  劇 陳木勝 Benny Chan / 呂思琳 / 凌志民 Chi-man Ling
◎主  演 謝霆鋒 Nicholas Tse
      余文樂 Shawn Yue
      房祖名 Jaycee Chan
      吳京 Jacky Wu
      安志杰 Andy On
      江若琳 Elanne kwong


◎標  簽 動作 | 香港 | 香港電影 | 男兒本色 | 謝霆鋒 | 警匪 | 陳木勝 | 余文樂

◎簡  介

  繁盛的中環街道上,突然一聲爆炸巨響,押款車一億美元新鈔被天養生(吳京飾)等一幫劫匪于路上公然劫走。多名無辜人員死傷,其中一人為警員陳晉(謝霆鋒飾)的未婚妻子。陳晉自此立誓追捕天養生以報仇雪恨,可天養生與一億美元卻不見蹤跡。
  半年后,見習督察方奕威(余文樂飾)帶領警員截查車輛時遇襲,隊員全體重傷,原來天養生一伙重新出現。高級警司章文耀(林嘉華飾)和羅沛權(鄭浩南飾)共同策劃連鎖行動,誓要將一伙匪徒逮捕。巡警衛景灝(房祖名飾)的哥哥是名打入天養生團伙內部的臥底,礙于身份,他被暫時停職,并想著還哥哥一個清白。三人的追捕中幾次不敵天養生,但發現警方有內奸……

◎獲獎情況

  第44屆臺北金馬影展(2007)
  金馬獎 最佳男配角(提名) 吳京
  金馬獎 最佳動作設計(提名) 李忠志
  金馬獎 最佳原創配樂(提名) 禇鎮東

  第27屆香港電影金像獎(2008)
  最佳動作設計(提名) 李忠志

  第9屆中國長春電影節(2008)
  金鹿獎 最佳導演(提名) 陳木勝
  評委會特別獎(提名)
Video
ID : 1
Format : AVC
Format/Info : Advanced Video Codec
Format profile : [email protected]
Format settings : CABAC / 8 Ref Frames
Format settings, CABAC : Yes
Format settings, Reference frames : 8 frames
Codec ID : V_MPEG4/ISO/AVC
Duration : 2 h 9 min
Bit rate : 9 661 kb/s
Width : 1 920 pixels
Height : 816 pixels
Display aspect ratio : 2.35:1
Frame rate mode : Constant
Frame rate : 24.000 FPS
Color space : YUV
Chroma subsampling : 4:2:0
Bit depth : 8 bits
Scan type : Progressive
Bits/(Pixel*Frame) : 0.257
Stream size : 8.54 GiB (85%)
Title : Invisible Target
Writing library : x264 core 57 svn-709C
Encoding settings : cabac=1 / ref=5 / deblock=1:-1:-1 / analyse=0x3:0x113 / me=umh / fpel_cmp=sad / subme=7 / me-prepass=0 / brdo=1 / mixed_ref=1 / me_range=16 / chroma_me=1 / trellis=1 / 8x8dct=1 / cqm=0 / deadzone=6,6 / chroma_qp_offset=0 / threads=3 / nr=0 / decimate=1 / mbaff=0 / bframes=3 / b_pyramid=1 / b_adapt=1 / b_bias=0 / direct=1 / wpredb=1 / bime=1 / keyint=250 / keyint_min=25 / scenecut=40(pre) / rc=2pass / bitrate=9661 / ratetol=1.0 / rceq=\'blurCplx^(1-qComp)\' / qcomp=0.60 / qpmin=3 / qpmax=51 / qpstep=4 / cplxblur=20.0 / qblur=0.5 / ip_ratio=1.40 / pb_ratio=1.30 / aq=1:0.5:15.0
Default : Yes
Forced : No

Audio
ID : 2
Format : DTS
Format/Info : Digital Theater Systems
Codec ID : A_DTS
Duration : 2 h 9 min
Bit rate mode : Constant
Bit rate : 1 509 kb/s
Channel(s) : 6 channels
Channel layout : C L R Ls Rs LFE
Sampling rate : 48.0 kHz
Frame rate : 93.750 FPS (512 SPF)
Bit depth : 24 bits
Compression mode : Lossy
Stream size : 1.37 GiB (14%)
Title : DTS
Language : Chinese
Default : Yes
Forced : No

Text
ID : 3
Format : UTF-8
Codec ID : S_TEXT/UTF8
Codec ID/Info : UTF-8 Plain Text
Language : English
Default : Yes
Forced : No





1 個附件 售價 大小 下載 時間

Invisible.Target.2007.1080p.Bluray.x264-DEFiNiTE.torrent 0 金幣 51.05K 1085 次 10天前

#1樓
發帖時間:2019-10-05 11:41:23   |   回復數:1
911degrees
隱世仙人♂
非常感謝,謝謝分享
1天前 #2樓
游客組